.

***Filmy-dabing***

Zametač stop / Cleaner (2007)

Info:
Krimi / Thriller
USA, 2007, 93 min

Policajt vo výslužbe (Samuel L. Jackson) šéfuje svojej vlastnej firme, ktorá sa zaoberá čistením miest činu. Čistí všetko, čo zostane na mieste činu po vražde, alebo úmrtí, ktoré bolo zistené, keď sa telo už začalo rozkladať. Na takéto miesto činu je objednaný aj teraz. Keď potom zistí, že zabudol vrátit od domu klúč a vracia sa aby ho vrátil, zistí, že v dome vlastne zahladil stopy po vražde, bez toho aby ju polícia vyšetrila. Dej sa postupne začne odvýjať a "čistič" sa nevie rozhodnúť, na ktorej strane vlastne má stáť.

CSFD:
http://www.csfd.cz/film/226201-zametac-stop-cleaner

Kvalita:
Kód:
Hlavní
Formát : AVI
Formát/Info : Audio Video Interleave
Format profile : OpenDML
Velikost souboru : 699 MiB
Duration : 1h 25mn
Celkový BitRate : 1 148 Kbps
Použitý software : AVI-Mux GUI 1.17.7, Aug 8 2006 20:59:17

Video
Formát : MPEG-4 Visual
Format profile : Streaming Video@L1
Format settings, BVOP : Ano
Format settings, QPel : Ne
Format settings, GMC : No warppoints
Format settings, Matrix : Default
Muxing mode : Packed bitstream
Codec ID : XVID
Codec ID/Hint : XviD
Duration : 1h 25mn
Bit rate : 1 011 Kbps
Šířka : 640pixely
Výška : 352pixely
Poměr stran : 16/9
Frame rate : 25,000 fps
Rozlišení : 24 bits
Colorimetry : 4:2:0
Scan type : Progressive
Bits/(Pixel*Frame) : 0.180
Stream size : 616 MiB (88%)
Enkódoval : XviD 1.2.0.dev47 (UTC 2006-11-01)

Audio
Formát : MPEG Audio
Format version : Version 1
Format profile : Layer 3
Codec ID : 55
Codec ID/Hint : MP3
Duration : 1h 25mn
Bit rate mode : Constant
Bit rate : 128 Kbps
Kanál(y) : 2 kanály
Sampling rate : 48,0 KHz
Rozlišení : 16 bits
Stream size : 78,0 MiB (11%)
Alignment : Aligned on interleaves
Interleave, duration : 24 ms (0,60 video frame)
Interleave, preload duration : 192 ms
Titul : cistic T01 2_0ch 224Kbps DELAY 0ms


Screeny:
http://www.upnito.sk/5/7bw3fr2g8s6axxgk.jpg


Link:
Kód:
http://www.hellshare.com/235882/F-ZS.rar

Pass:
Kód:
www.cucaj.sk


DOWNLOAD:
Kód:                                                           
Kód:
http://rapidshare.com/files/165209859/Cle_willy4400.part01.rar
http://rapidshare.com/files/165211853/Cle_willy4400.part02.rar
http://rapidshare.com/files/165213852/Cle_willy4400.part03.rar
http://rapidshare.com/files/165217246/Cle_willy4400.part04.rar
http://rapidshare.com/files/165219636/Cle_willy4400.part05.rar
http://rapidshare.com/files/165224390/Cle_willy4400.part06.rar
http://rapidshare.com/files/165226671/Cle_willy4400.part07.rar
http://rapidshare.com/files/165232473/Cle_willy4400.part08.rar
http://rapidshare.com/files/165235328/Cle_willy4400.part09.rar
http://rapidshare.com/files/165238045/Cle_willy4400.part10.rar
http://rapidshare.com/files/165240752/Cle_willy4400.part11.rar
http://rapidshare.com/files/165243779/Cle_willy4400.part12.rar
http://rapidshare.com/files/165246743/Cle_willy4400.part13.rar
http://rapidshare.com/files/165249738/Cle_willy4400.part14.rar
http://rapidshare.com/files/165251929/Cle_willy4400.part15.rar
Žádné komentáře
 
Ďakujem že ste navštevili moju stranku